Best xem phim dating agency cyrano vietsub tap 15

best xem phim dating agency cyrano vietsub tap 15

Phim Trung Tâm Mai Mối - Full 16/16 VIETSUB: Phim Trung Tâm Mai Mối Dating Agency: Cyrano là bộ phim truyền hình dựa theo phim điện ảnh cùng tên, kể về một đội ngũ được thuê để giúp những người đang gặp khó khăn trong cuộc sống tình cảm.

best xem phim dating agency cyrano vietsub tap 15

Tên phim gốc: 연애조작단:시라노 Tên tiếng Anh: Dating Agency: Cyrano Thể loại: Tình cảm, hài Thời lượng: 16 Khởi chiếu: Từ 27/5/2013 đến Lịch chiếu: Tối thứ Hai, Ba hàng tuần vào 23:00 giờ (giờ Hàn Quốc) Đạo diễn: Kang Kyung Hoon Kịch bản: Shin Jae Won Kênh chiếu: tvN Diễn viên: Lee Jong Hyuk, Choi Soo Young, Lee Chun Hee NỘI DUNG Dating Agency: Cyrano là bộ phim truyền hình dựa theo phim điện ảnh cùng tên, kể về một đội ngũ được thuê để giúp những người đang gặp khó khăn trong cuộc sống tình cảm.

Họ lập nên những kế hoạch tỉ mỉ, giúp khách hàng có được người yêu. NHÂN VẬT Quote Project Leader: thuongrabbit Trailers: trangtrang2118, thuongrabbit, sis_wanabe Translators: PurpleSeaUrchin, ka_chan, fansiyin, Mashimaro_1003 Timers: Akiya_uruki, thuongrabbit, PurpleSeaUrchin Editor: Koko_18 Typesetter: Brooklyn Ost trans: trangtrang2118, ka_chan Kara timer: thuongrabbit Kara fx: TrongDuc2903 Encoder: -NTC-, Laputa Poster: linkb0i, trangtrang2118 Uploader: U-Zone General Unique ID : 192132662457250724740172784998670039502 (0x908B67A074F0C206A047F3A6CFCE79CE) Complete name : E:\SNSD\Video\Drama\Dating Agency Cyrano (SNSD Soo Young)\[K-zone].Dating.Agency.Cyrano.E01.HD.KITES.VN.mkv Format : Matroska Format version : Version 2 File size : 762 MiB Duration : 48mn 32s Overall bit rate : 2 194 Kbps Encoded date : UTC 2013-06-03 10:51:02 Writing application : mkvmerge v5.8.0 ('No Sleep / Pillow') built on Sep 2 2012 15:37:04 Writing library : libebml v1.2.3 + libmatroska v1.3.0 Video ID : 1 Format : AVC Format/Info : Advanced Video Codec Format profile : High@L4.0 Format settings, CABAC : Yes Format settings, ReFrames : 8 frames Codec ID : V_MPEG4/ISO/AVC Duration : 48mn 32s Bit rate : 2 000 Kbps Width : 1 280 pixels Height : 720 pixels Display aspect ratio : 16:9 Frame rate mode : Constant Frame rate : 29.970 fps Color space : YUV Chroma subsampling : 4:2:0 Bit depth : 8 bits Scan type : Progressive Bits/(Pixel*Frame) : 0.072 Stream size : 680 MiB (89%) Writing library : x264 core 125 r2208 d9d2288 Encoding settings : cabac=1 / ref=8 / deblock=1:-1:0 / analyse=0x3:0x133 / me=umh / subme=7 / psy=1 / psy_rd=1.00:0.10 / mixed_ref=1 / me_range=16 / chroma_me=1 / trellis=2 / 8x8dct=1 / cqm=0 / deadzone=21,11 / fast_pskip=0 / chroma_qp_offset=-3 / threads=24 / lookahead_threads=4 / sliced_threads=0 / nr=0 / decimate=1 / interlaced=0 / bluray_compat=0 / constrained_intra=0 / bframes=3 / b_pyramid=2 / b_adapt=2 / b_bias=0 / direct=3 / weightb=1 / open_gop=0 / weightp=2 / keyint=250 / keyint_min=25 / scenecut=40 / intra_refresh=0 / rc_lookahead=50 / rc=2pass / mbtree=1 / bitrate=2000 / ratetol=1.0 / qcomp=0.60 / qpmin=0 / qpmax=69 / qpstep=4 / cplxblur=20.0 / qblur=0.5 / ip_ratio=1.40 / aq=1:1.00 Default : Yes Forced : No Audio ID : 2 Format : AC-3 Format/Info : Audio Coding 3 Mode extension : CM (complete main) Format settings, Endianness : Big Codec ID : A_AC3 Duration : 48mn 32s Bit rate mode : Constant Bit rate : 192 Kbps Channel(s) : 2 channels Channel positions : Front: L R Sampling rate : 48.0 KHz Bit depth : 16 bits Compression mode : Lossy Stream size : 66.7 MiB (9%) Default : Yes Forced : No


best xem phim dating agency cyrano vietsub tap 15

best xem phim dating agency cyrano vietsub tap 15 - Dating Agency; Cyrano


best xem phim dating agency cyrano vietsub tap 15

best xem phim dating agency cyrano vietsub tap 15

[KST VN] Công Ty Mai Mối T02
Best xem phim dating agency cyrano vietsub tap 15 Rating: 9,1/10 1266 reviews
Categories: best dating